Skip to main content

The Heavy Pets Live at The Royale on 2013-09-19




The Heavy Pets
2013-09-19
The Royale
Boston, MA

DPA 4011 > V3 Digital > R44 (24/96)
SDHC Card > Sound Forge Pro 10.0 (Normalize, Fades, resample iZotope 64-Bit SRC, dither iZotope MBIT+ Dither) > CD Wav (tracking) > TLH > Flac (level 8)
corner of FOH/a few feet ROC/ORTF/35' From Stage, 7' High

Taped and Transferred by Brian V.

Set 1

01. Played Again
02. Travel
03. Last Babies
04. Dewpoint
05. The Day the Sun Forgot to Rise


Collection HeavyPets
Band/Artist The Heavy Pets
Venue The Royale
Location Boston, MA

Source DPA 4011 > V3 Digital > R44 (24/96)
Lineage SDHC Card > Sound Forge Pro 10.0 (Normalize, Fades, resample iZotope 64-Bit SRC, dither iZotope MBIT+ Dither) > CD Wav (tracking) > TLH > Flac (level 8)
Taped by Brian V.
Transferred by Brian V.

Notes

***Support Bands That Allow Taping/Trading***

shntool output
length expanded size cdr WAVE problems fmt ratio filename
7:23.34 78225212 B --- -- ---xx flac 0.5514 heavypets2013-09-19s1t01.flac
6:59.23 73965740 B --- -- ---xx flac 0.5566 heavypets2013-09-19s1t02.flac
7:07.07 75339308 B --- -- ---xx flac 0.5343 heavypets2013-09-19s1t03.flac
11:15.68 119229980 B --- -- ---xx flac 0.5641 heavypets2013-09-19s1t04.flac
6:58.45 73841084 B --- -- ---xx flac 0.5618 heavypets2013-09-19s1t05.flac
39:44.27 420601324 B 0.5546 (5 files)

Reviews

There are no reviews yet. Be the first one to write a review.
PEOPLE ALSO FOUND
The Heavy Pets
by The Heavy Pets
89
0
0
Source: DPA 4011 > V3 Digital > R44 (24/48)
The Heavy Pets
by The Heavy Pets
49
0
0
Source: DPA 4011 > V3 Digital > R44 (24/96)
The Heavy Pets
by The Heavy Pets
21
0
0
Source: DPA 4011 > V3 Digital > R44 (24/96)
The Heavy Pets
by The Heavy Pets
54
0
0
Source: DPA 4011 > V3 Digital > R44 (24/96)
The Heavy Pets
by The Heavy Pets
34
0
0
Source: DPA 4011 > V3 Digital > R44 (24/96)
The Heavy Pets
by The Heavy Pets
498
0
2
( 2 reviews )
Source: DPA 4011 > V3 Digital > R44 (24/96)
The Heavy Pets
by The Heavy Pets
129
1
0
Source: DPA 4011 > V3 Digital > R44 (24/96)
Seed
by Seed
88
0
0
Source: DPA 4011 > V3 Digital > R44 (24/96)
Source: BSC1 (hypers) > Silver Cables > FR-2LE [BA TMod] (24/48)
Turbine
by Turbine
8
0
0
Source: BSC1(k3) + SBD > DR680 (24/48)